#TITLE:Chik Habit;
#SUBTITLE:;
#ARTIST:the flashbulb;
#TITLETRANSLIT:;
#SUBTITLETRANSLIT:;
#ARTISTTRANSLIT:;
#CREDIT:;
#BANNER:chikhabit-bn.png;
#BACKGROUND:chikhabit-bg.png;
#LYRICSPATH:;
#CDTITLE:;
#MUSIC:Chik Habit.mp3;
#OFFSET:-0.080;
#SAMPLESTART:100.000;
#SAMPLELENGTH:12.000;
#SELECTABLE:YES;
#BPMS:0.000=105.001,59.000=210.001,187.000=105.001,219.000=120.001,235.000=240.001;
#STOPS:;
#BGCHANGES:;
// cache tags:
#FIRSTBEAT:3.000;
#LASTBEAT:465.500;
#SONGFILENAME:Songs/nhac/Chik-Habit/ChikHabit.sm;
#HASMUSIC:1;
#HASBANNER:1;
#MUSICLENGTH:161.544;
// end cache tags

//---------------dance-single - ----------------
#NOTES:
     dance-single:
     :
     Hard:
     20:
     1.000,1.000,0.557,0.297,1.000,1554.000,90.000,48.000,0.000,1.000:
0000
0000
0000
1001
,
0011
0110
1001
1010
,
0011
0000
0101
0000
1100
0000
0001
0100
,
1010
0100
0001
0100
1010
0001
1000
0100
,
1010
0000
0000
0100
0000
0000
0010
0000
1000
0100
0000
0000
0011
0000
0000
0100
0000
0000
0010
0000
0000
1000
0000
0000
,
0101
0010
0100
1000
0011
0100
0010
1000
,
0101
0000
0000
0000
0000
0000
1000
0000
0000
0000
0000
0000
0011
0000
0000
0000
1000
0000
0100
0000
0000
0000
0000
0000
1001
0000
0000
0000
0000
0000
0100
0000
0000
0000
0000
0000
0010
0000
0000
0000
0000
0000
1000
0000
0000
0100
0000
0000
,
2000
0000
3001
0010
0100
0010
0001
0010
1000
0100
0001
1000
0001
0000
0010
0100
,
0010
0000
0001
1000
0001
0000
0000
0000
0000
0000
0000
0000
0002
0000
0013
0100
,
0010
0000
0000
0000
0000
0000
0001
0000
0000
0000
1000
0000
0001
0000
0000
0010
0000
0000
0100
0000
0000
1000
0000
0000
0100
0000
0000
0010
0000
0000
0001
0000
0000
0010
0000
0000
1000
0000
0000
0000
0000
0000
0100
0000
0000
1000
0000
0000
,
0100
0001
0010
0100
0010
0000
0000
0000
0000
0000
0000
0000
0002
0000
0023
0000
,
0230
0000
2300
0001
3010
0000
0100
0010
1000
0001
0010
0100
1000
0000
0010
0100
,
0010
0001
1000
0100
0010
0000
0000
0000
0000
0000
0000
0000
0002
0000
0013
0100
,
1000
0100
0010
0001
2000
0000
3010
0001
1000
0100
1000
0100
0002
0000
0013
1000
,
0001
0000
0000
0100
0000
0000
0010
0000
0000
0100
0000
0000
1000
0000
0000
0000
0001
0000
1000
0000
0000
0000
0000
0000
0110
0000
0000
0000
0000
0000
0000
0000
0000
0000
0000
0000
1001
0000
0000
0000
0000
0000
0010
0000
0000
0000
0000
0000
,
0100
0000
0000
0000
0000
0000
0010
0000
0000
0100
0000
0000
0010
0000
0000
1000
0000
0000
0001
0000
0000
0000
0000
0000
1000
0000
0100
0000
0010
0000
0001
0000
1000
0000
0100
0000
0010
0000
0001
0000
0000
0000
1000
0000
0000
0000
0000
0000
,
0001
0000
0000
0000
0000
0000
0000
0000
0010
0000
0000
0000
0000
0000
0000
0000
0100
0000
0000
0000
0000
0000
0000
0000
1000
0000
0000
0000
0000
0000
0000
0000
0000
0000
0000
0000
0001
0000
0000
0000
0000
0000
0000
0000
0000
0000
0000
0000
0100
0000
0000
0000
0000
0000
0000
0000
0000
0000
0000
0000
0010
0000
0000
0000
0000
0000
0000
0000
0000
0000
0000
0000
1000
0000
0000
0000
0000
0000
0000
0000
0000
0000
0000
0000
0100
0000
0000
0000
0000
0000
0000
0000
0000
0000
0000
0000
0001
0000
0000
0000
0000
0000
0010
0000
0000
0000
0000
0000
0100
0000
0000
0000
0000
0000
1000
0000
0000
0000
0000
0000
0001
0000
0000
0000
0000
0000
0010
0000
0000
0000
0000
0000
0100
0000
0000
0000
0000
0000
1000
0000
0000
0000
0000
0000
0001
0000
0000
0000
0000
0000
0000
0000
0000
0000
0000
0000
0010
0000
0000
0000
0000
0000
0000
0000
0000
0000
0000
0000
0001
0000
0000
0000
0000
0000
0000
0000
0000
0000
0000
0000
1000
0000
0000
0000
0000
0000
0000
0000
0000
0000
0000
0000
,
0010
0100
0001
1000
0010
0100
0010
0000
1001
0000
0110
0000
0011
0000
0000
0000
,
0001
0000
0010
0000
0100
0000
1000
0000
0001
0000
0010
0000
0100
0000
1000
0000
0001
0000
0010
0000
0100
0000
1000
0000
0001
0000
0010
0000
0100
0000
1000
0000
0001
0000
0010
0000
0100
0000
0000
0100
0000
0000
0100
0000
0000
0000
0000
0000
,
0001
0000
0000
0010
0000
0000
1000
0000
0000
0000
0000
0000
0010
0000
0000
0100
0000
0000
0010
0000
0000
1000
0000
0000
0010
0000
1000
0000
0001
0000
0100
0000
0010
0000
1000
0000
0001
0000
0100
0000
0010
0000
1000
0000
0000
0010
0000
0000
,
0100
0001
0010
0100
0001
0010
0001
0000
0010
0100
0010
0000
1001
0010
1001
0000
,
0010
0000
0100
0000
0001
0000
1000
0000
0010
0000
0100
0000
0001
0000
0010
0000
1000
0100
0010
0000
0001
0010
0100
0000
1001
0000
0000
0000
0000
0000
0000
0000
,
0001
1000
0010
0100
0001
1000
0010
0100
0001
1000
0010
0100
0001
1000
0010
0100
0001
1000
0011
0000
0000
0100
0000
0000
,
0001
0010
0100
0000
1000
0000
0001
0000
0010
0000
0100
0000
0010
0000
1000
0000
0001
0000
0010
1000
0001
0010
0100
1000
0100
0000
0010
0000
1000
0000
0001
0000
,
0010
0100
0010
0100
1000
0001
0010
1000
0001
0010
0100
0010
1000
0001
0010
0100
,
1010
0000
0101
0000
0010
0100
0001
1000
0010
0100
0001
0010
1100
0000
0000
0000
,
0001
0010
1000
0010
0100
0001
1000
0010
0100
0001
0100
0010
1000
0100
0001
0010
0100
0010
1000
0000
0000
0100
0000
0000
,
0011
0000
0100
0000
0001
0000
1000
0000
1010
0000
0000
0000
0101
0000
0010
1000
0001
0010
0100
0001
1000
0000
0000
0000
0010
0000
0100
0000
0010
0000
0000
0000
,
0001
0000
1000
0000
0001
0000
0000
0000
0010
0000
0100
0000
0001
0000
1000
0000
0010
0000
0100
0000
0010
0000
1000
0000
0001
0010
0100
1000
0001
0010
0100
1000
,
0011
0000
0000
0000
0110
0000
0000
0000
0001
0000
0010
0000
0100
0000
0010
0000
1000
0100
0010
0001
1000
0100
0010
0001
1100
0000
0000
0000
0000
0000
0000
0000
,
0001
0010
0100
1000
0001
0010
0100
1000
0001
0100
0010
0001
1000
0100
0010
0001
0010
0100
1000
0000
0000
0001
0000
0000
,
0010
0000
0000
0100
0000
0000
0001
0000
0000
1000
0000
0000
0001
0000
0010
0000
0100
0000
1000
0000
0001
0000
0010
0000
0100
0000
1000
0000
0001
0000
0010
0000
0100
0000
1000
0000
0100
0000
0000
0000
0000
0000
0010
0000
0000
0000
0000
0000
,
0100
0000
0000
0000
0000
0000
0000
0000
0000
0000
0000
0000
0000
0000
0000
0000
0000
0000
0000
0000
0000
0000
0000
0000
0010
0000
0000
0000
0000
0000
0000
0000
0000
0000
0000
0000
0000
0000
0000
0000
0000
0000
0000
0000
0000
0000
0000
0000
0001
0000
0000
0000
0000
0000
0000
0000
0000
0000
0000
0000
1000
0000
0000
0000
0000
0000
0000
0000
0000
0000
0000
0000
0001
0000
0000
0000
0000
0000
0010
0000
0000
0000
0000
0000
0100
0000
0000
0000
0000
0000
1000
0000
0000
0000
0000
0000
0001
0000
0000
0000
0000
0000
0010
0000
0000
0000
0000
0000
0100
0000
0000
0000
0000
0000
1000
0000
0000
0000
0000
0000
0001
0000
0000
0000
0000
0000
0000
0000
0000
0000
0000
0000
0010
0000
0000
0000
0000
0000
0000
0000
0000
0000
0000
0000
0100
0000
0000
0000
0000
0000
0000
0000
0000
0000
0000
0000
0000
0000
0000
0000
1000
0000
0000
0000
0000
0000
0000
0000
0000
0000
0000
0000
0000
0000
0000
0000
0001
0000
0000
0000
0000
0000
0000
0000
0000
0000
0000
0000
0000
0000
0000
0000
,
0010
0000
0000
0000
0100
0000
0000
0000
0010
0000
0000
0000
1000
0000
0000
0000
0001
0000
0000
0000
0010
0000
0000
0000
0100
0000
0000
0000
0010
0000
0000
0000
1000
0000
0000
0000
0110
0000
0000
0000
0000
0000
1000
0000
0000
0100
0000
0000
,
0001
0010
0100
1000
0001
0100
0010
1000
0001
0100
1000
0100
0010
0001
1000
0100
0010
0100
1001
0000
0000
0000
0000
0000
,
0010
0000
0000
0000
0100
0000
0000
0000
0001
0000
0000
0000
1000
0000
0000
0000
0010
0000
0000
0000
0100
0000
0000
0000
0001
0010
0100
1000
0000
0000
0000
0000
,
0010
0100
0001
1000
0100
0010
0100
0000
,
0010
0000
0000
0000
0000
0000
0000
0000
0001
0000
0000
0000
1000
0000
0000
0000
0010
0000
0000
0000
0100
1000
0100
0010
0001
0000
0000
0000
0000
0000
0000
0000
,
0001
0010
0100
1000
0001
0100
0010
1000
0001
0100
0010
1000
0001
0100
0010
1000
0001
0010
0100
0000
0000
0010
0000
0000
,
0100
0000
0001
0000
0010
0000
1000
0000
0001
0000
0010
0000
0100
0000
0010
0000
0000
0000
0001
0010
0100
1000
0100
0000
0011
0000
0100
0000
0010
0000
1000
0000
,
0001
0010
0100
0010
1000
0001
0010
0100
0001
1000
0100
0001
0010
0100
0010
0000
,
1100
0000
0001
0010
0100
0001
1000
0010
0100
0001
0010
0100
0011
0000
0000
0000
,
0001
1000
0010
0100
0001
1000
0100
0010
0001
1000
0010
0100
0001
0010
1000
0001
0010
0100
0010
0000
0000
0000
0000
0000
,
0100
0000
0000
0000
0010
0000
0000
0000
1000
0000
0000
0000
0001
0000
0000
0000
0010
0100
0010
0001
1000
0000
0000
0000
0010
0000
0001
0000
1000
0000
0010
0000
,
0100
1000
0010
0001
1000
0100
0001
1000
0010
0001
0100
0001
0010
0100
0010
0100
,
1000
0001
0100
0010
1000
0010
0100
0001
0100
0010
1000
0100
0011
0000
0000
0000
,
0001
0000
0000
0000
0000
0000
0000
0000
0010
0000
0000
0000
0000
0000
0000
0000
1000
0000
0000
0000
0000
0000
0000
0000
0010
0000
0000
0000
0000
0000
0000
0000
0100
0000
0000
0000
0000
0000
0000
0000
0010
0000
0000
0000
0000
0000
0000
0000
0001
0000
0000
0000
0000
0000
0000
0000
1000
0000
0000
0000
0000
0000
0000
0000
0100
0000
0000
0000
0000
0000
0000
0000
0010
0000
0000
0000
0000
0000
0000
0000
0001
0000
0000
0000
0000
0000
0000
0000
1000
0000
0000
0000
0000
0000
0000
0000
0010
0000
0000
0000
0000
0000
0000
0000
0100
0000
0000
0000
0000
0000
0000
0000
0001
0000
0000
0000
0000
0000
0000
0000
0010
0000
0000
0000
0000
0000
0000
0000
0100
0000
0000
0000
0000
0000
0000
0000
0010
0000
0000
0000
0000
0000
0000
0000
1000
0000
0000
0000
0000
0000
0000
0000
0000
0000
0000
0000
0000
0000
0000
0000
0000
0000
0000
0000
0000
0000
0000
0000
1001
0000
0000
0000
0000
0000
0000
0000
0000
0000
0000
0000
0000
0000
0000
0000
0000
0000
0010
0000
0000
0000
0000
0000
,
1100
0000
0010
0000
0100
0000
0010
0000
1000
0000
0000
0000
0010
0000
0000
0100
0011
0000
0100
0000
1000
0000
0001
0000
0010
0000
0000
0000
0100
0000
0000
0010
,
1100
0000
0001
0000
0010
0000
0100
0000
0001
0000
0000
0000
0010
0000
0000
0100
1010
0000
0001
0000
0010
0000
0100
0000
0001
0010
0100
0000
0001
0000
1000
0000
,
0010
0100
0010
0000
1000
0000
0001
0000
0010
0100
0010
0000
0001
0000
1000
0000
0010
1000
0100
0000
0001
0000
0010
0000
0001
1000
0001
0000
0010
0000
0100
0000
,
0001
0010
1000
0000
0010
0000
0100
0000
0001
1000
0001
0000
1001
0000
1000
0000
0001
0010
0100
0000
0001
0000
1000
0000
0020
0000
0000
0000
0000
0000
2030
0000
,
3200
0302
0023
2030
3200
0000
0000
0302
2003
3020
0230
0302
2003
0000
0000
3020
,
0230
0000
0302
0000
2003
0000
3020
0000
0130
0001
1000
0000
0010
0100
0010
0000
0001
1000
0001
0000
0100
0010
0001
0000
2000
0000
0000
0000
0000
0000
3020
0000
,
0230
0302
2003
3020
0230
0000
0000
2300
3002
2003
3020
0230
2300
0000
0020
3032
,
0023
0000
0230
0000
0302
0000
2003
0000
3010
0100
0001
0000
0010
0100
0010
0000
1000
0100
1000
0000
0001
0010
0001
0000
1000
0000
0001
0010
0100
0000
0010
0000
,
1001
0000
0100
0000
0010
0000
1000
0000
0010
0000
0100
0010
0100
0000
0001
0000
1010
0000
0100
0000
0001
0000
0010
0000
0100
0000
1000
0000
0001
0000
0010
0000
,
1100
0001
0100
0010
1000
0001
0010
1000
0001
0010
0100
0010
1000
0001
0010
0100
,
0011
1000
0001
0010
0001
0100
0010
0100
0011
1000
0010
0100
1000
0100
0001
0010
,
1100
0001
0100
0010
1000
0010
0100
0001
1100
0010
0100
0001
1010
0000
0000
0000
,
0010
0100
0010
0000
0001
0010
0000
0100
,
0010
1000
0001
0010
0100
0001
0010
0000
,
0010
0100
0010
0100
0001
1000
0010
0000
,
0000
0000
0000
0001
,
0010
0100
0010
1000
0001
0010
0000
0100
,
0010
1000
0001
0010
0100
0010
1000
0000
,
0001
0010
0100
0010
1000
0001
0010
0000
,
0000
0000
0000
0001
,
0010
0100
0010
1000
0001
0010
0100
0000
,
0010
0100
0010
1000
0001
0010
0100
0000
,
0010
0100
0001
1000
0010
0100
0010
0000
,
0000
0000
0000
0001
,
0010
0100
0001
1000
0010
0100
0001
0000
,
0010
0100
0001
1000
0010
0100
0001
0000
,
0010
0100
0001
1000
0010
0100
1000
0000
,
0000
0000
0000
0000
0000
0000
0000
0000
0000
0000
0000
0000
0001
0000
0010
0100
,
1000
0000
0010
0000
0100
0010
1000
0001
0010
0000
0100
0000
0011
1000
0011
0000
,
1000
0000
0000
0000
0000
0000
0100
0000
0000
0000
0000
0000
0010
0000
0000
0000
0000
0000
0001
0000
0000
0000
0000
0000
1000
0000
0000
0000
0000
0000
0100
0000
0000
0000
0000
0000
0010
0000
0000
0000
0000
0000
0001
0000
0000
0000
0000
0000
1000
0000
0000
0000
0000
0000
0000
0000
0000
0000
0000
0000
0010
0000
0000
0000
0000
0000
0000
0000
0000
0000
0000
0000
0100
0000
0000
0000
0000
0000
0000
0000
0000
0000
0000
0000
0001
0000
0000
0000
0000
0000
0000
0000
0000
0000
0000
0000
1000
0000
0000
0000
0000
0000
0000
0000
0001
0000
0000
0000
0000
0000
0000
0000
0010
0000
0000
0000
0000
0000
0000
0000
0100
0000
0000
0000
0000
0000
0000
0000
1000
0000
0000
0000
0000
0000
0000
0000
0001
0000
0000
0000
0000
0000
0000
0000
0010
0000
0000
0000
0000
0000
0000
0000
0100
0000
0000
0000
0000
0000
0000
0000
1000
0000
0000
0000
0000
0000
0000
0000
0100
0000
0000
0000
0000
0000
0000
0000
0000
0000
0000
0000
0010
0000
0000
0000
0000
0000
0000
0000
0000
0000
0000
0000
,
1000
0001
0010
0100
0010
1000
0001
0010
0100
0001
1000
0100
0011
0000
0000
0000
,
0001
0010
0100
1000
0001
0010
0100
1000
0001
0010
0100
1000
0001
0010
0100
1000
0001
0010
0100
0000
0000
1000
0000
0000
,
0001
0000
0010
0000
0100
0000
1000
0000
0000
0001
0000
0000
0010
0000
0000
0100
0000
0000
0010
0000
0000
1000
0000
0000
0010
0000
0100
0000
1000
0000
0100
0000
0010
0000
0100
0000
1000
0000
0000
0001
0000
0000
0010
0000
0000
0100
0000
0000
,
0010
0000
0000
0000
0001
0000
1000
0000
0000
0010
0000
0000
0100
0000
0000
0001
0000
0000
1000
0000
0000
0010
0000
0000
1100
0000
0000
0000
0000
0000
0110
0000
0000
0000
0000
0000
0001
0000
0000
0010
0000
0000
0100
0000
0000
0010
0000
0000
,
1000
0000
0000
0000
0001
0000
0000
0000
0010
0000
0000
0000
0100
0000
0000
0000
0010
0000
0000
0000
1000
0000
0000
0000
0001
0000
0000
0000
0010
0000
0000
0000
0100
0010
0001
0000
0000
0000
0000
0000
0100
0010
0001
0000
0000
0000
0000
0000
1001
0000
0000
0000
0000
0000
0000
0000
0000
0000
0000
0000
0000
0000
0000
0000
,
0001
0010
0100
1000
0001
0010
0100
1000
0001
0010
0100
1000
0001
0010
0100
1000
0001
0010
0100
0000
0000
0010
0000
0000
,
0100
0010
1000
0001
0100
0010
0100
0001
1000
0010
0100
0001
1000
0000
0110
0000
,
1000
0000
0010
0000
0001
0010
0100
1000
0001
0010
0100
1000
0001
0000
0010
0000
0100
0000
0010
0000
1000
0000
0001
0000
0010
0000
0100
0000
0010
0000
1000
0000
,
0001
0010
0100
0010
1000
0001
0010
0100
0010
1000
0001
0010
1100
0000
0000
0000
,
0001
0000
0100
0000
0010
0000
1000
0000
0001
0000
0100
0000
0010
0000
1000
0000
0100
0000
0010
0000
0001
0000
0100
0000
0010
0000
1000
0000
0001
0000
0010
0000
0100
0000
1000
0000
0001
0000
0000
0000
0000
0000
0010
0000
0000
0100
0000
0000
,
0010
0000
1000
0001
0100
0010
1000
0100
0010
0100
0001
0000
0010
0000
0100
0000
,
0001
0000
0010
0100
0010
1000
0001
0000
0010
0100
0010
0000
0001
1000
0010
0100
,
0010
0000
0001
0000
0100
0000
0010
0000
1000
0000
0001
0000
0010
0000
0100
0000
0001
0010
0100
1000
0001
0010
0100
1000
0011
0000
0000
0000
0000
0000
0000
0000
,
0001
0000
1000
0000
0010
0000
0100
0000
0001
0000
1000
0000
0010
0000
0100
0000
0001
0000
1000
0000
0100
0000
0010
0000
0001
0000
0010
0000
0100
0000
1000
0000
0100
0000
0010
0000
1001
0000
0000
0000
0000
0000
0010
0000
0000
0100
0000
0000
,
0001
0000
0000
0010
0000
0000
1000
0000
0000
0001
0000
0000
0100
0000
0000
0010
0000
0000
1000
0000
0000
0001
0000
0000
0100
0010
0001
0010
0100
0000
1000
0000
0000
0010
0000
0000
0100
0000
0000
0001
0000
0000
1000
0000
0000
0010
0000
0000
,
0100
0000
0010
0000
1000
0000
0010
0000
0100
0000
0001
0000
0010
0000
0001
0000
1000
0000
0100
0000
1000
0000
0010
0000
1100
0010
0001
1000
0100
0010
0001
1000
,
0010
0100
0010
0000
1001
0000
0010
0000
0100
0000
0001
0000
1001
0000
0000
0000
,
0001
0010
0100
1000
0001
0010
0100
1000
0001
0010
0100
1000
0001
0010
0100
1000
0001
0010
0100
0000
0000
0000
0000
0000
,
0100
0001
1000
0010
0100
0010
1000
0000
,
0010
0100
0001
1000
0010
0100
0001
0000
,
0010
0000
0010
0100
0010
1000
1001
0000
,
0001
0010
0100
1000
0001
0010
0100
1000
0001
0010
0100
1000
0100
1000
0100
0010
0001
1000
0100
0000
0000
0000
0000
0000
,
0001
0000
0010
0000
0001
0000
1000
0000
0010
0000
0100
0000
0001
0000
0010
0000
1000
0100
0010
0001
1000
0100
0010
0001
0100
0000
0000
0000
0010
0000
0000
0000
,
1001
0000
0010
0100
0010
1000
0001
0000
0110
0000
1000
0000
0011
0000
1000
0001
,
0100
0010
1000
0100
0010
0100
0010
0001
1000
0001
1000
0001
1010
0000
0000
0000
,
0001
0010
0100
1000
0001
0010
0100
1000
0001
0010
0100
1000
0001
0010
0100
1000
0001
0010
0100
0000
0000
0000
0000
1000
,
0000
0000
0000
0000
0010
0000
0000
0000
0000
0100
0000
0000
0000
0000
0001
0010
0100
1000
0100
0010
0001
1000
0000
0000
,
0001
0000
0110
0000
1000
0001
0010
0100
0010
0001
1000
0010
0100
0010
1000
0001
,
1100
0000
0000
0000
0000
0000
0001
0000
0000
0000
0000
0000
1000
0000
0000
0000
0000
0000
0001
0000
0000
0010
0000
0000
0001
0000
0000
0100
0000
0000
0010
0000
0000
0100
0001
0100
0001
0100
0001
0100
0001
0100
1000
0000
0000
0100
0000
0000
,
0001
0000
0010
0000
0100
0000
1000
0000
0001
0000
0010
0000
0100
0000
1000
0000
0001
0000
0010
0000
0100
0000
1000
0000
0001
0000
0010
0000
0100
0000
1000
0000
0000
0000
0000
0000
1001
0000
0000
0010
0000
0000
0100
0000
0000
0001
0000
0000
,
1000
0010
0100
0001
0010
0100
1000
0000
0010
0100
0000
0100
0010
0000
0110
0000
,
1000
0001
0010
0100
0010
1000
0001
0010
0100
1000
0100
0010
0001
0010
0100
1000
,
0001
0000
0000
1000
0000
0000
0010
0000
0100
0000
0010
0000
1000
0000
0000
0001
0000
0000
0010
0000
0100
0000
1000
0000
0001
0000
0000
0010
0000
0000
0100
0000
0000
0001
0000
0000
1000
0000
0000
0100
0000
0000
0010
0000
0000
0001
0000
0000
,
1000
0100
0010
0001
1000
0100
0010
0001
1000
0100
0010
0001
1000
0100
0010
0001
1000
0100
0010
0001
1000
0000
0000
0000
0110
0000
1000
0000
0001
0000
0010
0000
,
1000
0000
0000
0100
0000
0000
0010
0000
0000
1000
0000
0000
0001
0000
0000
0010
0000
0000
1000
0000
0000
0100
0000
0000
0001
0000
0000
0010
0000
0000
0100
0000
0010
0000
0001
0000
0100
0000
0010
0000
0001
0000
1000
0000
0000
0100
0000
0000
,
0010
0000
0001
0000
0010
0000
0100
0000
1000
0000
0000
0000
0000
0000
0000
0000
0000
0000
0001
0010
0100
1000
0001
0010
0100
1000
0000
0000
0010
0000
0100
0000
,
0001
0000
0000
1000
0000
0000
0010
0000
0000
0100
0000
0000
1000
0000
0000
0100
0000
0000
0010
0000
0000
0001
0000
0000
1000
0000
0100
0000
0010
0000
0001
0000
1000
0000
0100
0000
0010
0000
0001
0000
1000
0000
0100
0000
0010
0000
0001
0000
,
1100
0110
1001
0011
1100
0110
1001
0110
,
1100
0011
0110
2002
0000
0000
0000
0000
,
0000
0000
0000
3003
0000
0000
0000
0000
;
